<?xml version="1.0" standalone="no"?><!DOCTYPE svg PUBLIC "-//W3C//DTD SVG 1.1//EN" "http://www.w3.org/Graphics/SVG/1.1/DTD/svg11.dtd" ><svg xmlns="http://www.w3.org/2000/svg"><metadata></metadata><defs><font id="AgeFonts001:Version 1.00" horiz-adv-x="2408"><font-face font-family="AgeFonts001" font-weight="400" font-stretch="normal" units-per-em="2048" panose-1="2 0 6 0 0 0 0 0 0 0" ascent="1913" descent="-419" x-height="0" bbox="59 -476 2281 1830" underline-thickness="150" underline-position="-217" unicode-range="U+0025-221d" /><missing-glyph horiz-adv-x="1024" d="M100 0 l0 1434 l824 0 l0 -1434 l-824 0 ZM150 50 l724 0 l0 1334 l-724 0 l0 -1334 ZM325 1148 q31 28 58 43 q53 30 112 30 q92 0 148 -47.5 q56 -47.5 56 -127.5 q0 -49 -23 -98.5 q-23 -49.5 -87 -129.5 q-63 -80 -99 -132 q-36 -52 -36 -99 q0 -38 24 -133 l-32 0 q-35 97 -35 148 q0 76 81.5 218 q81.5 142 81.5 217 q0 57 -33 90 q-33 33 -91 33 q-38 0 -69 -17 q-26 -15 -56 -40 l0 45 ZM389 334 l57 58 q11 10 20 10 q10 0 22 -11 l56 -60 q9 -11 9 -20 q0 -11 -10 -22 l-56 -62 q-14 -14 -21 -14 q-11 0 -20 10 l-61 71 q-7 9 -7 18 q0 10 11 22 Z" /><glyph glyph-name="percent" unicode="%" d="M449 1459 q98 0 190.5 -49 q92.5 -49 144.5 -139.5 q52 -90.5 52 -190.5 q0 -99 -50.5 -188.5 q-50.5 -89.5 -143 -140 q-92.5 -50.5 -193.5 -50.5 q-100 0 -192.5 50.5 q-92.5 50.5 -143.5 140 q-51 89.5 -51 188.5 q0 100 52 190.5 q52 90.5 144.5 139.5 q92.5 49 190.5 49 ZM206 1066 q13 -92 55.5 -173.5 q42.5 -81.5 106.5 -124.5 q57 -40 114 -40 q7 0 13 1 q63 3 115 53 q52 50 73 136 q13 54 13 111 q0 32 -4 65 q-12 93 -56 175.5 q-44 82.5 -107 124.5 q-58 38 -115 38 l-11 0 q-61 -3 -113 -52 q-52 -49 -73 -135 q-15 -58 -15 -117 q0 -31 4 -62 ZM297 -29 l940 1461 l84 0 l-938 -1461 l-86 0 ZM1161 738 q97 0 190 -49.5 q93 -49.5 145 -140 q52 -90.5 52 -189.5 q0 -100 -50.5 -189.5 q-50.5 -89.5 -143 -139.5 q-92.5 -50 -193.5 -50 q-101 0 -193 50 q-92 50 -143 139.5 q-51 89.5 -51 189.5 q0 99 52 189.5 q52 90.5 144.5 140 q92.5 49.5 190.5 49.5 ZM918 344 q13 -92 55.5 -173.5 q42.5 -81.5 106.5 -124.5 q59 -39 116 -39 l11 0 q63 3 115 53 q52 50 73 136 q13 54 13 111 q0 32 -4 65 q-12 93 -56 175.5 q-44 82.5 -107 124.5 q-58 38 -115 38 l-11 0 q-61 -3 -113 -52 q-52 -49 -73 -135 q-15 -58 -15 -117 q0 -31 4 -62 Z" /><glyph glyph-name="period" unicode="." d="M145 167 l82 84 q15 14 29 14 q13 0 31 -16 l80 -86 q12 -16 12 -29 q0 -15 -14 -31 l-80 -88 q-20 -20 -29 -20 q-16 0 -29 14 l-88 101 q-10 13 -10 26 q0 15 16 31 Z" /><glyph glyph-name="slash" unicode="/" d="M276 -396 l1132 1132 l-170 170 l-1132 -1132 l170 -170 Z" /><glyph glyph-name="zero" unicode="0" d="M721 -400 q-56 0 -96.5 40 q-40.5 40 -40.5 97 q0 57 40.5 97 q40.5 40 96.5 40 q57 0 97.5 -40 q40.5 -40 40.5 -97 q0 -57 -40.5 -97 q-40.5 -40 -97.5 -40 ZM683 101 q-172 0 -313.5 84.5 q-141.5 84.5 -226 226 q-84.5 141.5 -84.5 313.5 q0 172 84.5 313.5 q84.5 141.5 226 225.5 q141.5 84 313.5 84 q171 0 312.5 -84 q141.5 -84 226 -225.5 q84.5 -141.5 84.5 -313.5 q0 -172 -84.5 -313.5 q-84.5 -141.5 -226 -226 q-141.5 -84.5 -312.5 -84.5 ZM683 316 q112 0 205 55.5 q93 55.5 148 148 q55 92.5 55 205.5 q0 112 -55 205 q-55 93 -148 148 q-93 55 -205 55 q-113 0 -206 -55 q-93 -55 -148 -148 q-55 -93 -55 -205 q0 -113 55 -205.5 q55 -92.5 148 -148 q93 -55.5 206 -55.5 Z" /><glyph glyph-name="one" unicode="1" d="M739 -18 l-228 0 l0 1011 l-188 -149 l-142 179 l558 442 l0 -1483 ZM625 -409 q-52 0 -88 36.5 q-36 36.5 -36 87.5 q0 52 36 88 q36 36 88 36 q51 0 87.5 -36 q36.5 -36 36.5 -88 q0 -51 -36.5 -87.5 q-36.5 -36.5 -87.5 -36.5 Z" /><glyph glyph-name="two" unicode="2" d="M631 263 q-164 61 -268 198.5 q-104 137.5 -116 319.5 q29 -73 109 -77 q73 5 103 68 q16 -136 110.5 -228 q94.5 -92 233.5 -104 l-172 -177 ZM1427 -386 l-1234 8 l930 962 q75 99 77 224 q0 153 -107 264 q-109 108 -262 110 q-163 -3 -270 -113 q-82 -86 -100 -208 q-31 69 -109 72 q-74 -5 -104 -70 q26 229 188 377.5 q162 148.5 396 152.5 q240 -4 411 -173 q167 -173 169 -413 q-5 -233 -164 -402 l-560 -575 l741 -5 l-2 -211 Z" /><glyph glyph-name="three" unicode="3" d="M717 -367 q-194 0 -348 112.5 q-154 112.5 -217 299.5 l204 65 q40 -119 138.5 -191 q98.5 -72 222.5 -72 q105 0 191.5 51.5 q86.5 51.5 137.5 137.5 q51 86 51 191 q0 100 -47 184 q-148 -102 -333 -102 l0 213 q94 0 174 42 q-80 43 -174 43 l0 213 q185 0 332 -102 q48 84 48 184 q0 105 -51 191 q-51 86 -137.5 137.5 q-86.5 51.5 -191.5 51.5 q-124 0 -222.5 -72 q-98.5 -72 -138.5 -192 l-204 65 q63 188 217 300 q154 112 348 112 q164 0 298.5 -80 q134.5 -80 215 -215 q80.5 -135 80.5 -298 q0 -186 -106 -338 q106 -152 106 -337 q0 -164 -80.5 -298.5 q-80.5 -134.5 -215 -215 q-134.5 -80.5 -298.5 -80.5 ZM1044 446 q48 0 82 34 q34 34 34 82 q0 48 -34 81.5 q-34 33.5 -82 33.5 q-48 0 -82 -33.5 q-34 -33.5 -34 -81.5 q0 -48 34 -82 q34 -34 82 -34 Z" /><glyph glyph-name="four" unicode="4" d="M1094 -410 l-206 0 l0 447 l-752 0 l0 205 l752 0 l0 572 l-421 -542 l-163 127 l799 1025 l162 -126 l-171 -220 l0 -1488 ZM1249 49 q-37 0 -63.5 26.5 q-26.5 26.5 -26.5 64.5 q0 37 26.5 63.5 q26.5 26.5 63.5 26.5 q38 0 64.5 -26.5 q26.5 -26.5 26.5 -63.5 q0 -38 -26.5 -64.5 q-26.5 -26.5 -64.5 -26.5 Z" /><glyph glyph-name="five" unicode="5" d="M797 -417 q-232 20 -385.5 180.5 q-153.5 160.5 -161.5 396.5 l212 -5 q8 -146 103 -246 q99 -103 249 -115 q-80 -32 -80 -109 q0 -67 63 -102 ZM907 -414 q58 35 58 99 q0 40 -24 70 q-24 30 -62 41 q127 15 220 106 q108 110 110 264 q0 124 -77 226 l-927 972 l1166 1 l0 -212 l-671 -1 l559 -582 q159 -170 162 -404 q-3 -241 -172 -414 q-144 -141 -342 -166 Z" /><glyph glyph-name="six" unicode="6" d="M727 130 q-44 0 -75 31 q-31 31 -31 75 q0 44 31 75 q31 31 75 31 q44 0 75 -31 q31 -31 31 -75 q0 -44 -31 -75 q-31 -31 -75 -31 ZM674 -412 q-132 0 -257 62 q-208 109 -283 331 q-28 90 -28 178 q0 130 62 256 q0 3 3 6 l-6 3 l500 1006 l176 -87 l-317 -638 q78 21 153 21 q130 0 255 -62 q208 -108 283 -330 l-186 -61 q-49 146 -185 217 q-82 41 -168 41 q-58 0 -117 -19 q-146 -50 -217 -186 q-41 -82 -41 -167 q0 -58 19 -117 q49 -146 186 -217 q82 -41 167 -41 q58 0 117 19 q179 63 241 243 l187 -58 q-94 -275 -367 -371 q-88 -29 -177 -29 Z" /><glyph glyph-name="seven" unicode="7" d="M555 -382 l-192 73 l540 1415 l-797 0 l0 206 l876 0 l56 149 l193 -73 l-29 -76 l138 0 l0 -206 l-217 0 l-568 -1488 Z" /><glyph glyph-name="eight" unicode="8" d="M759 -411 q-167 0 -304 81.5 q-137 81.5 -218.5 219 q-81.5 137.5 -81.5 303.5 q0 112 38 211.5 q38 99.5 106 179.5 q-83 129 -83 287 q0 150 73.5 273 q73.5 123 196.5 196.5 q123 73.5 273 73.5 q150 0 273 -73.5 q123 -73.5 196.5 -196.5 q73.5 -123 73.5 -273 q0 -158 -83 -287 q144 -176 144 -391 q0 -166 -81.5 -303.5 q-81.5 -137.5 -218.5 -219 q-137 -81.5 -304 -81.5 ZM759 519 q97 0 177 47.5 q80 47.5 127.5 127.5 q47.5 80 47.5 177 q0 97 -47.5 177 q-47.5 80 -127.5 127.5 q-80 47.5 -177 47.5 q-97 0 -177 -47.5 q-80 -47.5 -127.5 -127.5 q-47.5 -80 -47.5 -177 q0 -87 40 -162 q140 88 312 88 l0 -191 q-95 0 -176 -39 q80 -48 176 -48 ZM759 -220 q114 0 207.5 56 q93.5 56 149.5 149.5 q56 93.5 56 207.5 q0 135 -83 248 q-69 -53 -153 -83 q-84 -30 -177 -30 q-93 0 -177 30 q-84 30 -153 83 q-83 -108 -83 -248 q0 -114 55.5 -207.5 q55.5 -93.5 149.5 -149.5 q94 -56 208 -56 Z" /><glyph glyph-name="nine" unicode="9" d="M575 743 q-52 0 -88.5 37 q-36.5 37 -36.5 88 q0 52 36.5 89 q36.5 37 88.5 37 q52 0 89 -37 q37 -37 37 -89 q0 -51 -37 -88 q-37 -37 -89 -37 ZM561 -406 l-175 87 l316 637 q-62 -14 -124 -14 q-173 2 -313.5 99.5 q-140.5 97.5 -202.5 268.5 l186 63 q52 -138 177 -200 q72 -35 149 -35 q57 0 117 19 q138 50 195 170 l1 -1 q40 76 40 158 q0 57 -19 116 q-39 108 -128.5 172 q-89.5 64 -201.5 64 l-7 0 l-4 196 l7 0 q177 0 317.5 -98.5 q140.5 -98.5 201.5 -269.5 q30 -89 30 -178 q0 -28 -8.5 -101 q-8.5 -73 -66.5 -174 l-487 -979 Z" /><glyph glyph-name="A" unicode="a" d="M817 -392 l-1 164 q-175 8 -315.5 95 q-140.5 87 -224.5 231.5 q-84 144.5 -84 319.5 q0 173 82.5 316.5 q82.5 143.5 221 231 q138.5 87.5 311.5 97.5 l-2 367 l215 1 l9 -1401 q161 79 222 255 l205 -65 q-52 -156 -163.5 -265 q-111.5 -109 -262.5 -156 l2 -189 l-215 -2 ZM814 -13 l-5 861 q-114 -9 -204 -68 q-90 -59 -144 -153.5 q-54 -94.5 -54 -208.5 q0 -115 54.5 -210.5 q54.5 -95.5 146.5 -154.5 q92 -59 206 -66 ZM589 1137 q-55 0 -93.5 38.5 q-38.5 38.5 -38.5 93.5 q0 55 38.5 93.5 q38.5 38.5 93.5 38.5 q55 0 93.5 -38.5 q38.5 -38.5 38.5 -93.5 q0 -55 -38.5 -93.5 q-38.5 -38.5 -93.5 -38.5 Z" /><glyph glyph-name="B" unicode="b" d="M813 -228 q186 0 338.5 90.5 q152.5 90.5 243 243 q90.5 152.5 90.5 337.5 q0 186 -90.5 338 q-90.5 152 -243 243 q-152.5 91 -338.5 91 l0 -223 q124 0 226 -60.5 q102 -60.5 162.5 -162.5 q60.5 -102 60.5 -226 q0 -123 -60.5 -225 q-60.5 -102 -162.5 -162.5 q-102 -60.5 -226 -60.5 q-146 0 -262.5 84.5 q-116.5 84.5 -164.5 226.5 l-212 -68 q71 -212 245.5 -339 q174.5 -127 393.5 -127 ZM837 -397 l11 1612 l562 0 l0 223 l-783 0 l-13 -1833 l223 -2 ZM725 1557 q57 0 97 40 q40 40 40 97 q0 56 -40 96 q-40 40 -97 40 q-56 0 -96 -40 q-40 -40 -40 -96 q0 -57 40 -97 q40 -40 96 -40 Z" /><glyph glyph-name="C" unicode="c" d="M758 -318 q210 0 376.5 121 q166.5 121 234.5 324 l-203 65 q-46 -135 -157 -216 q-111 -81 -251 -81 q-118 0 -215.5 57.5 q-97.5 57.5 -155 155 q-57.5 97.5 -57.5 215.5 q0 118 57.5 215 q57.5 97 155 155 q97.5 58 215.5 58 l0 213 q-177 0 -322.5 -86.5 q-145.5 -86.5 -232 -232 q-86.5 -145.5 -86.5 -322.5 q0 -177 86.5 -322.5 q86.5 -145.5 232 -232 q145.5 -86.5 322.5 -86.5 Z" /><glyph glyph-name="D" unicode="d" d="M815 -264 q211 0 378.5 122.5 q167.5 122.5 236.5 326.5 l-205 65 q-45 -136 -157 -217.5 q-112 -81.5 -253 -81.5 q-119 0 -217 58 q-98 58 -156.5 156 q-58.5 98 -58.5 217 q0 119 58.5 217 q58.5 98 156.5 156 q98 58 217 58 l0 215 q-178 0 -325 -87.5 q-147 -87.5 -234 -234 q-87 -146.5 -87 -324.5 q0 -178 87 -324.5 q87 -146.5 234 -234 q147 -87.5 325 -87.5 ZM1007 -425 l0 1454 l-215 0 l0 -1454 l215 0 ZM1007 1025 l0 722 l-215 0 l0 -507 l-416 0 l0 -215 l631 0 ZM568 1363 q55 0 93.5 38.5 q38.5 38.5 38.5 93.5 q0 54 -38.5 92.5 q-38.5 38.5 -93.5 38.5 q-54 0 -92.5 -38.5 q-38.5 -38.5 -38.5 -92.5 q0 -55 38.5 -93.5 q38.5 -38.5 92.5 -38.5 ZM815 -264 q211 0 378.5 122.5 q167.5 122.5 236.5 326.5 l-205 65 q-45 -136 -157 -217.5 q-112 -81.5 -253 -81.5 q-119 0 -217 58 q-98 58 -156.5 156 q-58.5 98 -58.5 217 q0 119 58.5 217 q58.5 98 156.5 156 q98 58 217 58 l0 215 q-178 0 -325 -87.5 q-147 -87.5 -234 -234 q-87 -146.5 -87 -324.5 q0 -178 87 -324.5 q87 -146.5 234 -234 q147 -87.5 325 -87.5 ZM1007 -425 l0 1454 l-215 0 l0 -1454 l215 0 ZM1007 1025 l0 722 l-215 0 l0 -507 l-416 0 l0 -215 l631 0 ZM568 1363 q55 0 93.5 38.5 q38.5 38.5 38.5 93.5 q0 54 -38.5 92.5 q-38.5 38.5 -93.5 38.5 q-54 0 -92.5 -38.5 q-38.5 -38.5 -38.5 -92.5 q0 -55 38.5 -93.5 q38.5 -38.5 92.5 -38.5 Z" /><glyph glyph-name="E" unicode="e" d="M1218 728 l-293 0 l0 234 l293 0 l0 -234 ZM916 176 l-748 0 l0 234 l748 0 l0 -234 ZM1218 -376 l-1050 0 l0 234 l1050 0 l0 -234 Z" /><glyph glyph-name="F" unicode="f" d="M475 -418 l0 1133 l501 0 l0 230 l-730 0 l0 -1363 l229 0 Z" /><glyph glyph-name="G" unicode="g" d="M790 343 q151 0 275.5 74 q124.5 74 198.5 198.5 q74 124.5 74 274.5 q0 151 -74 275.5 q-74 124.5 -198.5 198.5 q-124.5 74 -275.5 74 q-151 0 -275 -74 q-124 -74 -198 -198.5 q-74 -124.5 -74 -275.5 q0 -150 74 -274.5 q74 -124.5 198 -198.5 q124 -74 275 -74 ZM790 557 q-138 0 -235.5 97.5 q-97.5 97.5 -97.5 235.5 q0 138 97.5 236 q97.5 98 235.5 98 q138 0 236 -98 q98 -98 98 -236 q0 -138 -98 -235.5 q-98 -97.5 -236 -97.5 ZM790 -422 q168 0 306 82.5 q138 82.5 220 220 q82 137.5 82 305.5 q0 167 -82 305 q-82 138 -220 220 q-138 82 -306 82 l0 -213 q109 0 198.5 -53.5 q89.5 -53.5 142.5 -143 q53 -89.5 53 -197.5 q0 -109 -53 -198 q-53 -89 -142.5 -142.5 q-89.5 -53.5 -198.5 -53.5 q-108 0 -197.5 53.5 q-89.5 53.5 -142.5 142.5 q-53 89 -53 198 q0 141 94 256 l-162 139 q-146 -178 -146 -395 q0 -168 82 -305.5 q82 -137.5 220 -220 q138 -82.5 305 -82.5 ZM1326 1434 q54 0 92.5 38.5 q38.5 38.5 38.5 92.5 q0 54 -38.5 92.5 q-38.5 38.5 -92.5 38.5 q-55 0 -93 -38.5 q-38 -38.5 -38 -92.5 q0 -54 38 -92.5 q38 -38.5 93 -38.5 Z" /><glyph glyph-name="H" unicode="h" d="M375 -476 l0 1588 q0 44 30 75 q30 31 72 31 q42 0 72 -31 q30 -31 30 -75 l0 -530 l213 0 l0 530 q0 136 -92.5 232.5 q-92.5 96.5 -222.5 96.5 q-130 0 -222.5 -96.5 q-92.5 -96.5 -92.5 -232.5 l0 -1588 l213 0 ZM685 78 q-54 0 -92 40 q-38 40 -38 96 q0 57 38 97 q38 40 92 40 q55 0 93 -40 q38 -40 38 -97 q0 -56 -38 -96 q-38 -40 -93 -40 Z" /><glyph glyph-name="I" unicode="i" d="M339 -406 l0 651 l89 -48 l90 167 l-369 199 l0 -969 l190 0 Z" /><glyph glyph-name="J" unicode="j" d="M840 -448 l-431 239 l100 182 l123 -68 l0 1559 l423 0 l0 -208 l-215 0 l0 -1704 ZM229 -108 q-49 0 -83.5 34.5 q-34.5 34.5 -34.5 82.5 q0 49 34.5 83 q34.5 34 83.5 34 q48 0 82.5 -34 q34.5 -34 34.5 -83 q0 -48 -34.5 -82.5 q-34.5 -34.5 -82.5 -34.5 Z" /><glyph glyph-name="K" unicode="k" d="M392 -418 l-228 0 l0 1849 l228 0 l0 -530 q0 -140 82 -249 q156 96 338 96 q182 0 337 -96 q83 109 83 249 l228 0 q0 -114 -37 -215.5 q-37 -101.5 -103 -185.5 q66 -83 103 -185 q37 -102 37 -215 l-228 0 q0 140 -83 249 q-155 -96 -337 -96 q-182 0 -338 96 q-82 -109 -82 -249 l0 -518 ZM812 481 q66 0 126 19 q-60 20 -126 20 q-66 0 -126 -20 q60 -19 126 -19 Z" /><glyph glyph-name="L" unicode="l" d="M544 -412 l0 1681 l140 0 l0 207 l-347 0 l0 -1681 l-138 0 l0 -207 l345 0 Z" /><glyph glyph-name="M" unicode="m" d="M474 -392 l0 1256 q0 118 57.5 215 q57.5 97 154.5 154.5 q97 57.5 215 57.5 q117 0 214 -57.5 q97 -57.5 155 -154.5 q58 -97 58 -215 l206 0 q0 175 -85.5 318.5 q-85.5 143.5 -229.5 229 q-144 85.5 -318 85.5 q-175 0 -318.5 -85.5 q-143.5 -85.5 -229 -229 q-85.5 -143.5 -85.5 -318.5 l0 -1256 l206 0 ZM1431 491 q57 0 97.5 41 q40.5 41 40.5 98 q0 58 -40.5 98.5 q-40.5 40.5 -97.5 40.5 q-58 0 -98.5 -40.5 q-40.5 -40.5 -40.5 -98.5 q0 -57 40.5 -98 q40.5 -41 98.5 -41 ZM1961 491 q57 0 97.5 41 q40.5 41 40.5 98 q0 58 -40.5 98.5 q-40.5 40.5 -97.5 40.5 q-58 0 -98.5 -40.5 q-40.5 -40.5 -40.5 -98.5 q0 -57 40.5 -98 q40.5 -41 98.5 -41 ZM1004 -392 l0 1256 q0 118 57.5 215 q57.5 97 154.5 154.5 q97 57.5 215 57.5 q117 0 214 -57.5 q97 -57.5 155 -154.5 q58 -97 58 -215 l206 0 q0 175 -85.5 318.5 q-85.5 143.5 -229.5 229 q-144 85.5 -318 85.5 q-175 0 -318.5 -85.5 q-143.5 -85.5 -229 -229 q-85.5 -143.5 -85.5 -318.5 l0 -1256 l206 0 Z" /><glyph glyph-name="N" unicode="n" d="M1253 -343 l163 162 l-1080 1079 l-162 -162 l1079 -1079 ZM373 -404 q71 0 121 50 q50 50 50 121 q0 71 -50 121 q-50 50 -121 50 q-71 0 -121 -50 q-50 -50 -50 -121 q0 -71 50 -121 q50 -50 121 -50 ZM1219 608 q66 0 121 51 q50 55 50 121 q0 65 -50 120 q-55 51 -121 51 q-65 0 -121 -51 q-50 -55 -50 -120 q0 -66 50 -121 q56 -51 121 -51 Z" /><glyph glyph-name="O" unicode="o" d="M810 81 q70 0 119.5 49.5 q49.5 49.5 49.5 119.5 q0 71 -49.5 120.5 q-49.5 49.5 -119.5 49.5 q-70 0 -120 -49.5 q-50 -49.5 -50 -120.5 q0 -70 50 -119.5 q50 -49.5 120 -49.5 ZM810 -410 q182 0 332 89 q150 89 239 239 q89 150 89 332 q0 182 -89 332 q-89 150 -239 239.5 q-150 89.5 -332 89.5 q-182 0 -332 -89.5 q-150 -89.5 -239.5 -239.5 q-89.5 -150 -89.5 -332 q0 -182 89.5 -332 q89.5 -150 239.5 -239 q150 -89 332 -89 ZM810 -183 q-120 0 -218 58.5 q-98 58.5 -156.5 157 q-58.5 98.5 -58.5 217.5 q0 120 58.5 218 q58.5 98 156.5 156.5 q98 58.5 218 58.5 q119 0 217.5 -58.5 q98.5 -58.5 157 -156.5 q58.5 -98 58.5 -218 q0 -119 -58.5 -217.5 q-58.5 -98.5 -157 -157 q-98.5 -58.5 -217.5 -58.5 Z" /><glyph glyph-name="P" unicode="p" d="M716 0 q187 0 341 91.5 q154 91.5 245.5 245.5 q91.5 154 91.5 341 l-225 0 q0 -125 -61 -228 q-61 -103 -164 -164 q-103 -61 -228 -61 l0 -225 ZM969 1054 l126 186 q-175 116 -379 116 l0 -225 q136 0 253 -77 ZM285 581 q48 143 165.5 228.5 q117.5 85.5 265.5 85.5 l0 226 q-222 0 -398 -128.5 q-176 -128.5 -248 -342.5 l215 -69 ZM715 -412 l0 812 l-225 0 l0 -812 l225 0 Z" /><glyph glyph-name="Q" unicode="q" d="M1121 1214 l-221 0 l0 202 l221 0 l0 -202 ZM1121 -417 l-221 0 l0 202 l221 0 l0 -202 ZM844 -171 q-179 0 -326.5 87.5 q-147.5 87.5 -235 234.5 q-87.5 147 -87.5 326 q0 179 87.5 326 q87.5 147 235 234.5 q147.5 87.5 326.5 87.5 l0 -215 q-120 0 -218 -58.5 q-98 -58.5 -157 -157 q-59 -98.5 -59 -217.5 q0 -119 59 -217.5 q59 -98.5 157 -157 q98 -58.5 218 -58.5 l0 -215 ZM1352 -165 q-183 0 -334 89.5 q-151 89.5 -241 240.5 q-90 151 -90 335 q0 183 90 334 q90 151 241 240.5 q151 89.5 334 89.5 l0 -220 q-123 0 -223.5 -60 q-100.5 -60 -160.5 -161 q-60 -101 -60 -223 q0 -123 60 -223.5 q60 -100.5 160.5 -160.5 q100.5 -60 223.5 -60 l0 -221 Z" /><glyph glyph-name="R" unicode="r" d="M607 -422 l134 162 l-208 171 q114 74 180 192.5 q66 118.5 66 256.5 l0 415 l-210 0 l0 -415 q0 -114 -72 -202 q-72 -88 -186 -114 l-214 -45 l510 -421 ZM1056 257 l0 622 q0 114 72 202.5 q72 88.5 186 114.5 l-43 206 q-188 -43 -306.5 -188.5 q-118.5 -145.5 -118.5 -334.5 l0 -622 l210 0 ZM674 873 q55 0 94.5 39 q39.5 39 39.5 95 q0 56 -39.5 95.5 q-39.5 39.5 -94.5 39.5 q-56 0 -95.5 -39.5 q-39.5 -39.5 -39.5 -95.5 q0 -56 39.5 -95 q39.5 -39 95.5 -39 Z" /><glyph glyph-name="S" unicode="s" d="M630 -386 l0 244 l-176 0 q-29 0 -50 20.5 q-21 20.5 -21 50.5 l0 59 q0 30 21 50.5 q21 20.5 50 20.5 l1011 0 q130 0 222.5 92.5 q92.5 92.5 92.5 222.5 q0 130 -92.5 222.5 q-92.5 92.5 -222.5 92.5 l-1011 0 q-29 0 -50 21 q-21 21 -21 50 l0 44 q0 29 21 50 q21 21 50 21 l556 0 q130 0 222.5 92 q92.5 92 92.5 223 l0 255 l-244 0 l0 -255 q0 -30 -21 -51 q-21 -21 -50 -21 l-556 0 q-130 0 -222.5 -92 q-92.5 -92 -92.5 -222 l0 -44 q0 -130 92.5 -222.5 q92.5 -92.5 222.5 -92.5 l1011 0 q30 0 51 -21 q21 -21 21 -50 q0 -29 -21 -50 q-21 -21 -51 -21 l-1011 0 q-130 0 -222.5 -92.5 q-92.5 -92.5 -92.5 -222.5 l0 -59 q0 -130 92.5 -222.5 q92.5 -92.5 222.5 -92.5 l176 0 ZM902 -420 q65 0 110.5 45.5 q45.5 45.5 45.5 110.5 q0 64 -45.5 109.5 q-45.5 45.5 -110.5 45.5 q-64 0 -109.5 -45.5 q-45.5 -45.5 -45.5 -109.5 q0 -65 45.5 -110.5 q45.5 -45.5 109.5 -45.5 Z" /><glyph glyph-name="T" unicode="t" d="M1047 -390 l0 224 l-483 0 l0 1097 l-225 0 l0 -1321 l708 0 Z" /><glyph glyph-name="U" unicode="u" d="M638 -439 q105 0 191.5 51.5 q86.5 51.5 138 138 q51.5 86.5 51.5 191.5 l0 1496 l-789 0 l0 -209 l579 0 l0 -1287 q0 -71 -50 -121 q-50 -50 -121 -50 q-71 0 -121.5 50 q-50.5 50 -50.5 121 l0 600 l-209 0 l0 -600 q0 -105 51.5 -191.5 q51.5 -86.5 138 -138 q86.5 -51.5 191.5 -51.5 ZM363 661 q56 0 95 39 q39 39 39 95 q0 55 -39 94.5 q-39 39.5 -95 39.5 q-55 0 -94 -39.5 q-39 -39.5 -39 -94.5 q0 -56 39 -95 q39 -39 94 -39 Z" /><glyph glyph-name="V" unicode="v" d="M982 -397 l779 1350 l-1558 0 l779 -1350 ZM982 83 l-363 630 l727 0 l-364 -630 Z" /><glyph glyph-name="W" unicode="w" d="M1206 -228 q105 0 197.5 48.5 q92.5 48.5 153.5 137.5 l724 1069 l-226 153 l-724 -1069 q-49 -66 -125 -66 q-76 0 -125 66 l-724 1069 l-226 -153 l724 -1069 q61 -89 153 -137.5 q92 -48.5 198 -48.5 ZM1720 -415 l231 146 l-295 467 q-75 118 -193.5 183.5 q-118.5 65.5 -256.5 65.5 q-138 0 -256.5 -65.5 q-118.5 -65.5 -193.5 -183.5 l-295 -467 l231 -146 l295 468 q83 121 219 121 q136 0 219 -121 l295 -468 Z" /><glyph glyph-name="X" unicode="x" d="M277 648 q63 0 107.5 44.5 q44.5 44.5 44.5 106.5 q0 63 -44.5 107.5 q-44.5 44.5 -107.5 44.5 q-62 0 -106.5 -44.5 q-44.5 -44.5 -44.5 -107.5 q0 -62 44.5 -106.5 q44.5 -44.5 106.5 -44.5 ZM291 -409 q62 0 106.5 44 q44.5 44 44.5 107 q0 63 -44.5 107.5 q-44.5 44.5 -106.5 44.5 q-63 0 -107.5 -44.5 q-44.5 -44.5 -44.5 -107.5 q0 -63 44.5 -107 q44.5 -44 107.5 -44 ZM1331 648 q63 0 107.5 44.5 q44.5 44.5 44.5 106.5 q0 63 -44.5 107.5 q-44.5 44.5 -107.5 44.5 q-63 0 -107.5 -44.5 q-44.5 -44.5 -44.5 -107.5 q0 -62 44.5 -106.5 q44.5 -44.5 107.5 -44.5 ZM804 92 q63 0 107.5 44.5 q44.5 44.5 44.5 107.5 q0 63 -44.5 107.5 q-44.5 44.5 -107.5 44.5 q-63 0 -107.5 -44.5 q-44.5 -44.5 -44.5 -107.5 q0 -63 44.5 -107.5 q44.5 -44.5 107.5 -44.5 ZM1344 -409 q63 0 107.5 44 q44.5 44 44.5 107 q0 63 -44.5 107.5 q-44.5 44.5 -107.5 44.5 q-63 0 -107.5 -44.5 q-44.5 -44.5 -44.5 -107.5 q0 -63 44.5 -107 q44.5 -44 107.5 -44 Z" /><glyph glyph-name="Y" unicode="y" d="M740 768 q60 0 101.5 41.5 q41.5 41.5 41.5 100.5 q0 60 -41.5 101.5 q-41.5 41.5 -101.5 41.5 q-59 0 -100.5 -41.5 q-41.5 -41.5 -41.5 -101.5 q0 -59 41.5 -100.5 q41.5 -41.5 100.5 -41.5 ZM864 -425 l0 1047 l-223 0 l0 -1047 l223 0 ZM753 445 q158 0 289 78 q131 78 208.5 208.5 q77.5 130.5 77.5 289.5 l0 396 l-223 0 l0 -396 q0 -97 -47.5 -177 q-47.5 -80 -127.5 -127.5 q-80 -47.5 -177 -47.5 q-98 0 -178 47.5 q-80 47.5 -127.5 127.5 q-47.5 80 -47.5 177 l0 415 l-223 0 l0 -415 q0 -159 77.5 -289.5 q77.5 -130.5 208.5 -208.5 q131 -78 290 -78 Z" /><glyph glyph-name="Z" unicode="z" d="M1434 364 l-806 0 l0 275 l806 0 l0 -275 ZM1434 -398 l-1236 0 l0 275 l1236 0 l0 -275 Z" /><glyph glyph-name="a" unicode="a" d="M817 -392 l-1 164 q-175 8 -315.5 95 q-140.5 87 -224.5 231.5 q-84 144.5 -84 319.5 q0 173 82.5 316.5 q82.5 143.5 221 231 q138.5 87.5 311.5 97.5 l-2 367 l215 1 l9 -1401 q161 79 222 255 l205 -65 q-52 -156 -163.5 -265 q-111.5 -109 -262.5 -156 l2 -189 l-215 -2 ZM814 -13 l-5 861 q-114 -9 -204 -68 q-90 -59 -144 -153.5 q-54 -94.5 -54 -208.5 q0 -115 54.5 -210.5 q54.5 -95.5 146.5 -154.5 q92 -59 206 -66 ZM589 1137 q-55 0 -93.5 38.5 q-38.5 38.5 -38.5 93.5 q0 55 38.5 93.5 q38.5 38.5 93.5 38.5 q55 0 93.5 -38.5 q38.5 -38.5 38.5 -93.5 q0 -55 -38.5 -93.5 q-38.5 -38.5 -93.5 -38.5 Z" /><glyph glyph-name="b" unicode="b" d="M813 -228 q186 0 338.5 90.5 q152.5 90.5 243 243 q90.5 152.5 90.5 337.5 q0 186 -90.5 338 q-90.5 152 -243 243 q-152.5 91 -338.5 91 l0 -223 q124 0 226 -60.5 q102 -60.5 162.5 -162.5 q60.5 -102 60.5 -226 q0 -123 -60.5 -225 q-60.5 -102 -162.5 -162.5 q-102 -60.5 -226 -60.5 q-146 0 -262.5 84.5 q-116.5 84.5 -164.5 226.5 l-212 -68 q71 -212 245.5 -339 q174.5 -127 393.5 -127 ZM837 -397 l11 1612 l562 0 l0 223 l-783 0 l-13 -1833 l223 -2 ZM725 1557 q57 0 97 40 q40 40 40 97 q0 56 -40 96 q-40 40 -97 40 q-56 0 -96 -40 q-40 -40 -40 -96 q0 -57 40 -97 q40 -40 96 -40 Z" /><glyph glyph-name="c" unicode="c" d="M758 -318 q210 0 376.5 121 q166.5 121 234.5 324 l-203 65 q-46 -135 -157 -216 q-111 -81 -251 -81 q-118 0 -215.5 57.5 q-97.5 57.5 -155 155 q-57.5 97.5 -57.5 215.5 q0 118 57.5 215 q57.5 97 155 155 q97.5 58 215.5 58 l0 213 q-177 0 -322.5 -86.5 q-145.5 -86.5 -232 -232 q-86.5 -145.5 -86.5 -322.5 q0 -177 86.5 -322.5 q86.5 -145.5 232 -232 q145.5 -86.5 322.5 -86.5 Z" /><glyph glyph-name="d" unicode="d" d="M815 -264 q211 0 378.5 122.5 q167.5 122.5 236.5 326.5 l-205 65 q-45 -136 -157 -217.5 q-112 -81.5 -253 -81.5 q-119 0 -217 58 q-98 58 -156.5 156 q-58.5 98 -58.5 217 q0 119 58.5 217 q58.5 98 156.5 156 q98 58 217 58 l0 215 q-178 0 -325 -87.5 q-147 -87.5 -234 -234 q-87 -146.5 -87 -324.5 q0 -178 87 -324.5 q87 -146.5 234 -234 q147 -87.5 325 -87.5 ZM1007 -425 l0 1454 l-215 0 l0 -1454 l215 0 ZM1007 1025 l0 722 l-215 0 l0 -507 l-416 0 l0 -215 l631 0 ZM568 1363 q55 0 93.5 38.5 q38.5 38.5 38.5 93.5 q0 54 -38.5 92.5 q-38.5 38.5 -93.5 38.5 q-54 0 -92.5 -38.5 q-38.5 -38.5 -38.5 -92.5 q0 -55 38.5 -93.5 q38.5 -38.5 92.5 -38.5 ZM815 -264 q211 0 378.5 122.5 q167.5 122.5 236.5 326.5 l-205 65 q-45 -136 -157 -217.5 q-112 -81.5 -253 -81.5 q-119 0 -217 58 q-98 58 -156.5 156 q-58.5 98 -58.5 217 q0 119 58.5 217 q58.5 98 156.5 156 q98 58 217 58 l0 215 q-178 0 -325 -87.5 q-147 -87.5 -234 -234 q-87 -146.5 -87 -324.5 q0 -178 87 -324.5 q87 -146.5 234 -234 q147 -87.5 325 -87.5 ZM1007 -425 l0 1454 l-215 0 l0 -1454 l215 0 ZM1007 1025 l0 722 l-215 0 l0 -507 l-416 0 l0 -215 l631 0 ZM568 1363 q55 0 93.5 38.5 q38.5 38.5 38.5 93.5 q0 54 -38.5 92.5 q-38.5 38.5 -93.5 38.5 q-54 0 -92.5 -38.5 q-38.5 -38.5 -38.5 -92.5 q0 -55 38.5 -93.5 q38.5 -38.5 92.5 -38.5 Z" /><glyph glyph-name="e" unicode="e" d="M1218 728 l-293 0 l0 234 l293 0 l0 -234 ZM916 176 l-748 0 l0 234 l748 0 l0 -234 ZM1218 -376 l-1050 0 l0 234 l1050 0 l0 -234 Z" /><glyph glyph-name="f" unicode="f" d="M475 -418 l0 1133 l501 0 l0 230 l-730 0 l0 -1363 l229 0 Z" /><glyph glyph-name="g" unicode="g" d="M790 343 q151 0 275.5 74 q124.5 74 198.5 198.5 q74 124.5 74 274.5 q0 151 -74 275.5 q-74 124.5 -198.5 198.5 q-124.5 74 -275.5 74 q-151 0 -275 -74 q-124 -74 -198 -198.5 q-74 -124.5 -74 -275.5 q0 -150 74 -274.5 q74 -124.5 198 -198.5 q124 -74 275 -74 ZM790 557 q-138 0 -235.5 97.5 q-97.5 97.5 -97.5 235.5 q0 138 97.5 236 q97.5 98 235.5 98 q138 0 236 -98 q98 -98 98 -236 q0 -138 -98 -235.5 q-98 -97.5 -236 -97.5 ZM790 -422 q168 0 306 82.5 q138 82.5 220 220 q82 137.5 82 305.5 q0 167 -82 305 q-82 138 -220 220 q-138 82 -306 82 l0 -213 q109 0 198.5 -53.5 q89.5 -53.5 142.5 -143 q53 -89.5 53 -197.5 q0 -109 -53 -198 q-53 -89 -142.5 -142.5 q-89.5 -53.5 -198.5 -53.5 q-108 0 -197.5 53.5 q-89.5 53.5 -142.5 142.5 q-53 89 -53 198 q0 141 94 256 l-162 139 q-146 -178 -146 -395 q0 -168 82 -305.5 q82 -137.5 220 -220 q138 -82.5 305 -82.5 ZM1326 1434 q54 0 92.5 38.5 q38.5 38.5 38.5 92.5 q0 54 -38.5 92.5 q-38.5 38.5 -92.5 38.5 q-55 0 -93 -38.5 q-38 -38.5 -38 -92.5 q0 -54 38 -92.5 q38 -38.5 93 -38.5 Z" /><glyph glyph-name="h" unicode="h" d="M375 -476 l0 1588 q0 44 30 75 q30 31 72 31 q42 0 72 -31 q30 -31 30 -75 l0 -530 l213 0 l0 530 q0 136 -92.5 232.5 q-92.5 96.5 -222.5 96.5 q-130 0 -222.5 -96.5 q-92.5 -96.5 -92.5 -232.5 l0 -1588 l213 0 ZM685 78 q-54 0 -92 40 q-38 40 -38 96 q0 57 38 97 q38 40 92 40 q55 0 93 -40 q38 -40 38 -97 q0 -56 -38 -96 q-38 -40 -93 -40 Z" /><glyph glyph-name="i" unicode="i" d="M339 -406 l0 651 l89 -48 l90 167 l-369 199 l0 -969 l190 0 Z" /><glyph glyph-name="j" unicode="j" d="M840 -448 l-431 239 l100 182 l123 -68 l0 1559 l423 0 l0 -208 l-215 0 l0 -1704 ZM229 -108 q-49 0 -83.5 34.5 q-34.5 34.5 -34.5 82.5 q0 49 34.5 83 q34.5 34 83.5 34 q48 0 82.5 -34 q34.5 -34 34.5 -83 q0 -48 -34.5 -82.5 q-34.5 -34.5 -82.5 -34.5 Z" /><glyph glyph-name="k" unicode="k" d="M392 -418 l-228 0 l0 1849 l228 0 l0 -530 q0 -140 82 -249 q156 96 338 96 q182 0 337 -96 q83 109 83 249 l228 0 q0 -114 -37 -215.5 q-37 -101.5 -103 -185.5 q66 -83 103 -185 q37 -102 37 -215 l-228 0 q0 140 -83 249 q-155 -96 -337 -96 q-182 0 -338 96 q-82 -109 -82 -249 l0 -518 ZM812 481 q66 0 126 19 q-60 20 -126 20 q-66 0 -126 -20 q60 -19 126 -19 Z" /><glyph glyph-name="l" unicode="l" d="M544 -412 l0 1681 l140 0 l0 207 l-347 0 l0 -1681 l-138 0 l0 -207 l345 0 Z" /><glyph glyph-name="m" unicode="m" d="M474 -392 l0 1256 q0 118 57.5 215 q57.5 97 154.5 154.5 q97 57.5 215 57.5 q117 0 214 -57.5 q97 -57.5 155 -154.5 q58 -97 58 -215 l206 0 q0 175 -85.5 318.5 q-85.5 143.5 -229.5 229 q-144 85.5 -318 85.5 q-175 0 -318.5 -85.5 q-143.5 -85.5 -229 -229 q-85.5 -143.5 -85.5 -318.5 l0 -1256 l206 0 ZM1431 491 q57 0 97.5 41 q40.5 41 40.5 98 q0 58 -40.5 98.5 q-40.5 40.5 -97.5 40.5 q-58 0 -98.5 -40.5 q-40.5 -40.5 -40.5 -98.5 q0 -57 40.5 -98 q40.5 -41 98.5 -41 ZM1961 491 q57 0 97.5 41 q40.5 41 40.5 98 q0 58 -40.5 98.5 q-40.5 40.5 -97.5 40.5 q-58 0 -98.5 -40.5 q-40.5 -40.5 -40.5 -98.5 q0 -57 40.5 -98 q40.5 -41 98.5 -41 ZM1004 -392 l0 1256 q0 118 57.5 215 q57.5 97 154.5 154.5 q97 57.5 215 57.5 q117 0 214 -57.5 q97 -57.5 155 -154.5 q58 -97 58 -215 l206 0 q0 175 -85.5 318.5 q-85.5 143.5 -229.5 229 q-144 85.5 -318 85.5 q-175 0 -318.5 -85.5 q-143.5 -85.5 -229 -229 q-85.5 -143.5 -85.5 -318.5 l0 -1256 l206 0 Z" /><glyph glyph-name="n" unicode="n" d="M1253 -343 l163 162 l-1080 1079 l-162 -162 l1079 -1079 ZM373 -404 q71 0 121 50 q50 50 50 121 q0 71 -50 121 q-50 50 -121 50 q-71 0 -121 -50 q-50 -50 -50 -121 q0 -71 50 -121 q50 -50 121 -50 ZM1219 608 q66 0 121 51 q50 55 50 121 q0 65 -50 120 q-55 51 -121 51 q-65 0 -121 -51 q-50 -55 -50 -120 q0 -66 50 -121 q56 -51 121 -51 Z" /><glyph glyph-name="o" unicode="o" d="M810 81 q70 0 119.5 49.5 q49.5 49.5 49.5 119.5 q0 71 -49.5 120.5 q-49.5 49.5 -119.5 49.5 q-70 0 -120 -49.5 q-50 -49.5 -50 -120.5 q0 -70 50 -119.5 q50 -49.5 120 -49.5 ZM810 -410 q182 0 332 89 q150 89 239 239 q89 150 89 332 q0 182 -89 332 q-89 150 -239 239.5 q-150 89.5 -332 89.5 q-182 0 -332 -89.5 q-150 -89.5 -239.5 -239.5 q-89.5 -150 -89.5 -332 q0 -182 89.5 -332 q89.5 -150 239.5 -239 q150 -89 332 -89 ZM810 -183 q-120 0 -218 58.5 q-98 58.5 -156.5 157 q-58.5 98.5 -58.5 217.5 q0 120 58.5 218 q58.5 98 156.5 156.5 q98 58.5 218 58.5 q119 0 217.5 -58.5 q98.5 -58.5 157 -156.5 q58.5 -98 58.5 -218 q0 -119 -58.5 -217.5 q-58.5 -98.5 -157 -157 q-98.5 -58.5 -217.5 -58.5 Z" /><glyph glyph-name="p" unicode="p" d="M716 0 q187 0 341 91.5 q154 91.5 245.5 245.5 q91.5 154 91.5 341 l-225 0 q0 -125 -61 -228 q-61 -103 -164 -164 q-103 -61 -228 -61 l0 -225 ZM969 1054 l126 186 q-175 116 -379 116 l0 -225 q136 0 253 -77 ZM285 581 q48 143 165.5 228.5 q117.5 85.5 265.5 85.5 l0 226 q-222 0 -398 -128.5 q-176 -128.5 -248 -342.5 l215 -69 ZM715 -412 l0 812 l-225 0 l0 -812 l225 0 Z" /><glyph glyph-name="q" unicode="q" d="M1121 1214 l-221 0 l0 202 l221 0 l0 -202 ZM1121 -417 l-221 0 l0 202 l221 0 l0 -202 ZM844 -171 q-179 0 -326.5 87.5 q-147.5 87.5 -235 234.5 q-87.5 147 -87.5 326 q0 179 87.5 326 q87.5 147 235 234.5 q147.5 87.5 326.5 87.5 l0 -215 q-120 0 -218 -58.5 q-98 -58.5 -157 -157 q-59 -98.5 -59 -217.5 q0 -119 59 -217.5 q59 -98.5 157 -157 q98 -58.5 218 -58.5 l0 -215 ZM1352 -165 q-183 0 -334 89.5 q-151 89.5 -241 240.5 q-90 151 -90 335 q0 183 90 334 q90 151 241 240.5 q151 89.5 334 89.5 l0 -220 q-123 0 -223.5 -60 q-100.5 -60 -160.5 -161 q-60 -101 -60 -223 q0 -123 60 -223.5 q60 -100.5 160.5 -160.5 q100.5 -60 223.5 -60 l0 -221 Z" /><glyph glyph-name="r" unicode="r" d="M607 -422 l134 162 l-208 171 q114 74 180 192.5 q66 118.5 66 256.5 l0 415 l-210 0 l0 -415 q0 -114 -72 -202 q-72 -88 -186 -114 l-214 -45 l510 -421 ZM1056 257 l0 622 q0 114 72 202.5 q72 88.5 186 114.5 l-43 206 q-188 -43 -306.5 -188.5 q-118.5 -145.5 -118.5 -334.5 l0 -622 l210 0 ZM674 873 q55 0 94.5 39 q39.5 39 39.5 95 q0 56 -39.5 95.5 q-39.5 39.5 -94.5 39.5 q-56 0 -95.5 -39.5 q-39.5 -39.5 -39.5 -95.5 q0 -56 39.5 -95 q39.5 -39 95.5 -39 Z" /><glyph glyph-name="s" unicode="s" d="M630 -386 l0 244 l-176 0 q-29 0 -50 20.5 q-21 20.5 -21 50.5 l0 59 q0 30 21 50.5 q21 20.5 50 20.5 l1011 0 q130 0 222.5 92.5 q92.5 92.5 92.5 222.5 q0 130 -92.5 222.5 q-92.5 92.5 -222.5 92.5 l-1011 0 q-29 0 -50 21 q-21 21 -21 50 l0 44 q0 29 21 50 q21 21 50 21 l556 0 q130 0 222.5 92 q92.5 92 92.5 223 l0 255 l-244 0 l0 -255 q0 -30 -21 -51 q-21 -21 -50 -21 l-556 0 q-130 0 -222.5 -92 q-92.5 -92 -92.5 -222 l0 -44 q0 -130 92.5 -222.5 q92.5 -92.5 222.5 -92.5 l1011 0 q30 0 51 -21 q21 -21 21 -50 q0 -29 -21 -50 q-21 -21 -51 -21 l-1011 0 q-130 0 -222.5 -92.5 q-92.5 -92.5 -92.5 -222.5 l0 -59 q0 -130 92.5 -222.5 q92.5 -92.5 222.5 -92.5 l176 0 ZM902 -420 q65 0 110.5 45.5 q45.5 45.5 45.5 110.5 q0 64 -45.5 109.5 q-45.5 45.5 -110.5 45.5 q-64 0 -109.5 -45.5 q-45.5 -45.5 -45.5 -109.5 q0 -65 45.5 -110.5 q45.5 -45.5 109.5 -45.5 Z" /><glyph glyph-name="t" unicode="t" d="M1047 -390 l0 224 l-483 0 l0 1097 l-225 0 l0 -1321 l708 0 Z" /><glyph glyph-name="u" unicode="u" d="M638 -439 q105 0 191.5 51.5 q86.5 51.5 138 138 q51.5 86.5 51.5 191.5 l0 1496 l-789 0 l0 -209 l579 0 l0 -1287 q0 -71 -50 -121 q-50 -50 -121 -50 q-71 0 -121.5 50 q-50.5 50 -50.5 121 l0 600 l-209 0 l0 -600 q0 -105 51.5 -191.5 q51.5 -86.5 138 -138 q86.5 -51.5 191.5 -51.5 ZM363 661 q56 0 95 39 q39 39 39 95 q0 55 -39 94.5 q-39 39.5 -95 39.5 q-55 0 -94 -39.5 q-39 -39.5 -39 -94.5 q0 -56 39 -95 q39 -39 94 -39 Z" /><glyph glyph-name="v" unicode="v" d="M982 -397 l779 1350 l-1558 0 l779 -1350 ZM982 83 l-363 630 l727 0 l-364 -630 Z" /><glyph glyph-name="w" unicode="w" d="M1206 -228 q105 0 197.5 48.5 q92.5 48.5 153.5 137.5 l724 1069 l-226 153 l-724 -1069 q-49 -66 -125 -66 q-76 0 -125 66 l-724 1069 l-226 -153 l724 -1069 q61 -89 153 -137.5 q92 -48.5 198 -48.5 ZM1720 -415 l231 146 l-295 467 q-75 118 -193.5 183.5 q-118.5 65.5 -256.5 65.5 q-138 0 -256.5 -65.5 q-118.5 -65.5 -193.5 -183.5 l-295 -467 l231 -146 l295 468 q83 121 219 121 q136 0 219 -121 l295 -468 Z" /><glyph glyph-name="x" unicode="x" d="M277 648 q63 0 107.5 44.5 q44.5 44.5 44.5 106.5 q0 63 -44.5 107.5 q-44.5 44.5 -107.5 44.5 q-62 0 -106.5 -44.5 q-44.5 -44.5 -44.5 -107.5 q0 -62 44.5 -106.5 q44.5 -44.5 106.5 -44.5 ZM291 -409 q62 0 106.5 44 q44.5 44 44.5 107 q0 63 -44.5 107.5 q-44.5 44.5 -106.5 44.5 q-63 0 -107.5 -44.5 q-44.5 -44.5 -44.5 -107.5 q0 -63 44.5 -107 q44.5 -44 107.5 -44 ZM1331 648 q63 0 107.5 44.5 q44.5 44.5 44.5 106.5 q0 63 -44.5 107.5 q-44.5 44.5 -107.5 44.5 q-63 0 -107.5 -44.5 q-44.5 -44.5 -44.5 -107.5 q0 -62 44.5 -106.5 q44.5 -44.5 107.5 -44.5 ZM804 92 q63 0 107.5 44.5 q44.5 44.5 44.5 107.5 q0 63 -44.5 107.5 q-44.5 44.5 -107.5 44.5 q-63 0 -107.5 -44.5 q-44.5 -44.5 -44.5 -107.5 q0 -63 44.5 -107.5 q44.5 -44.5 107.5 -44.5 ZM1344 -409 q63 0 107.5 44 q44.5 44 44.5 107 q0 63 -44.5 107.5 q-44.5 44.5 -107.5 44.5 q-63 0 -107.5 -44.5 q-44.5 -44.5 -44.5 -107.5 q0 -63 44.5 -107 q44.5 -44 107.5 -44 Z" /><glyph glyph-name="y" unicode="y" d="M740 768 q60 0 101.5 41.5 q41.5 41.5 41.5 100.5 q0 60 -41.5 101.5 q-41.5 41.5 -101.5 41.5 q-59 0 -100.5 -41.5 q-41.5 -41.5 -41.5 -101.5 q0 -59 41.5 -100.5 q41.5 -41.5 100.5 -41.5 ZM864 -425 l0 1047 l-223 0 l0 -1047 l223 0 ZM753 445 q158 0 289 78 q131 78 208.5 208.5 q77.5 130.5 77.5 289.5 l0 396 l-223 0 l0 -396 q0 -97 -47.5 -177 q-47.5 -80 -127.5 -127.5 q-80 -47.5 -177 -47.5 q-98 0 -178 47.5 q-80 47.5 -127.5 127.5 q-47.5 80 -47.5 177 l0 415 l-223 0 l0 -415 q0 -159 77.5 -289.5 q77.5 -130.5 208.5 -208.5 q131 -78 290 -78 Z" /><glyph glyph-name="z" unicode="z" d="M1434 364 l-806 0 l0 275 l806 0 l0 -275 ZM1434 -398 l-1236 0 l0 275 l1236 0 l0 -275 Z" /></font>
</defs>
</svg>
